To choose other audio in video - Stream 0:2 Audio NOT default

  • TiMoscow
  • TiMoscow's Avatar Topic Author
  • Offline
  • Senior Boarder
  • Senior Boarder
More
8 months 1 week ago - 8 months 1 week ago #85214 by TiMoscow
Video at me with a set of soundtracks.
When loading video, I have understood are put the first soundtrack of video.
What to do if I want other soundtrack?

Stream #0:0: Video: mpeg1video, yuv420p, 352x240 [SAR 200:219 DAR 880:657], 1150 kb/s, SAR 1:1 DAR 22:15, 59.94 fps, 59.94 tbr, 1k tbn, 29.97 tbc (default)
Stream #0:1(rus): Audio: ac3, 48000 Hz, stereo, fltp, 256 kb/s (default)
Stream #0:2(eng): Audio: mp2, 44100 Hz, stereo, s16p, 128 kb/s
Last Edit: 8 months 1 week ago by TiMoscow.

Please Log in or Create an account to join the conversation.

  • TiMoscow
  • TiMoscow's Avatar Topic Author
  • Offline
  • Senior Boarder
  • Senior Boarder
More
8 months 1 day ago #85224 by TiMoscow
I ask the answer where developers?
If there is no opportunity to operate from an admin panel.
Tell as well as where to edit files.

Please Log in or Create an account to join the conversation.

  • TiMoscow
  • TiMoscow's Avatar Topic Author
  • Offline
  • Senior Boarder
  • Senior Boarder
More
7 months 4 weeks ago #85225 by TiMoscow
The project was closed?

Please Log in or Create an account to join the conversation.